Skip to main content

Monks of Doom Live at Eagle Tavern on 2010-06-03




01. intro
02. Cherry Blossom Baptism
03. Riverbed
04. Jim Gore and the Ghost of Missouri
05. Trapped
06. Hieroglyphic
07. Light In The Sky
08. Going South
09. Calvary
10. The Traveler
11. The Vivian Girls
12. Chang
13. Unexplained Murders
14. The Harbor Incident
15. New Saigon
16. Poison
17. Hurricane Fighter Plane
18. The Better Angels Of Our Nature
19. Tanguedia (Reprise)
20. Oh Well
21. Für Immer


Collection MonksofDoom
Band/Artist Monks of Doom
Venue Eagle Tavern
Location San Francisco CA USA

Source DPA 4061 mics > Sony PCM-D50 > WAV @48/24
Lineage WAVs > Digital Performer > Audacity > xACT > FLAC
Taped by Seteeet
Transferred by morst

Notes

Opening band:
In a very special engagement, the Jack Curtis Dubowsky Ensemble and strings perform the entire Depeche Mode album Violator, start to finish, completely live, with no pre-records or sequencing. For the 20th anniversary of this auspicious album, hear it live, as you have never heard it before.

Recorded by Seteeet:
DPA 4061 mics > Sony PCM-D50 > WAV @48/24
Mics were sitting on projector (not being used) hanging from ceiling. It was 15-20 feet back from stage and it was hanging above the bar, which means there might be more people talking & bar clanking noises.

FoH sound mix by Doug Hilsinger

Transfer by morst:
WAV > Digital Performer 4 (adjust levels with volume tool & limiter, output at 44.1/16) > WAV > Audacity 1.3.12 (tracking & fades) > WAVs > xACT 1.71 > FLAC level 8 lossless encoding

SHNTOOL:
length expanded size cdr WAVE problems fmt ratio filename
0:58.787 16930604 B cxx -- ---xx MoD2010-06-03-2448t01.flac
7:33.400 130579244 B cxx -- ---xx MoD2010-06-03-2448t02.flac
3:28.600 60076844 B cxx -- ---xx MoD2010-06-03-2448t03.flac
4:23.867 75993644 B cxx -- ---xx MoD2010-06-03-2448t04.flac
4:19.947 74864684 B cxx -- ---xx MoD2010-06-03-2448t05.flac
4:42.787 81442604 B cxx -- ---xx MoD2010-06-03-2448t06.flac
6:03.453 104674604 B cxx -- ---xx MoD2010-06-03-2448t07.flac
6:46.947 117200684 B cxx -- ---xx MoD2010-06-03-2448t08.flac
6:52.547 118813484 B cxx -- ---xx MoD2010-06-03-2448t09.flac
6:45.333 116736044 B cxx -- ---xx MoD2010-06-03-2448t10.flac
3:02.787 52642604 B cxx -- ---xx MoD2010-06-03-2448t11.flac
4:52.533 84249644 B cxx -- ---xx MoD2010-06-03-2448t12.flac
4:02.747 69911084 B cxx -- ---xx MoD2010-06-03-2448t13.flac
7:32.107 130206764 B cxx -- ---xx MoD2010-06-03-2448t14.flac
9:22.760 162074924 B cxx -- ---xx MoD2010-06-03-2448t15.flac
6:08.467 106118444 B cxx -- ---xx MoD2010-06-03-2448t16.flac
9:17.773 160638764 B cxx -- ---xx MoD2010-06-03-2448t17.flac
3:37.707 62699564 B cxx -- ---xx MoD2010-06-03-2448t18.flac
2:43.360 47047724 B cxx -- ---xx MoD2010-06-03-2448t19.flac
3:46.027 65095724 B cxx -- ---xx MoD2010-06-03-2448t20.flac
14:03.560 242945324 B cxx -- ---xx MoD2010-06-03-2448t21.flac
120:25.493 2080943004 B 0.7845 (21 files)

Reviews

There are no reviews yet. Be the first one to write a review.
DOWNLOAD OPTIONS
In Collection
Monks of Doom
In Collection
Live Music Archive
Uploaded by
morst
on 8/18/2010
Views
184
Favorites
1
PEOPLE ALSO FOUND
Monks of Doom
by Monks of Doom
1,373
1
0
Source: SBD?
Monks of Doom
by Monks of Doom
1,279
1
0
Source: AKG C522MS ("The Pickle Mic") > Grace Lunatec V3 (mic preamp & A>D converter) + Soundcraft 800B SBD > Edirol R44 > WAVs @48kHz/24bit
Monks of Doom
by Monks of Doom
7,353
2
3
( 3 reviews )
Source: AUD > MD
Monks of Doom
by Monks of Doom
787
1
3
( 3 reviews )
Source: Neumann KM-140 > Beyer MV100 > Sony SBM-1 > Sony D8
Monks of Doom
by Monks of Doom
183
1
0
Source: DPA 4061 mics > Sony PCM-D50 > WAV @48/24
Monks of Doom
by Monks of Doom
559
1
0
Source: DPA 4061 mics > Sony PCM-D50 > WAV @48/24
Monks of Doom
by Monks of Doom
2,285
1
0
Source: Stereo mic > Sony D3 > MCAS
Monks of Doom
by Monks of Doom
2,825
1
1
( 1 reviews )
Source: ECM 929> D6> M EQ 230 > SV-3700 > HHB 830 30'Stage Center
Monks of Doom
by Monks of Doom
22,160
1
3
( 3 reviews )
Source: Realistic 33-1063 omni mic > Marantz PMD430 cassette deck w/ Dolby B NR
Monks of Doom
by Monks of Doom
2,833
1
2
( 2 reviews )
Source: SBD?